<?xml version="1.0" standalone="no"?>
<!DOCTYPE svg PUBLIC "-//W3C//DTD SVG 1.1//EN" "http://www.w3.org/Graphics/SVG/1.1/DTD/svg11.dtd">
<svg xmlns="http://www.w3.org/2000/svg">
<metadata>Copyright (C) 2021 by original authors @ fontello.com</metadata>
<defs>
<font id="fontello" horiz-adv-x="1000" >
<font-face font-family="fontello" font-weight="400" font-stretch="normal" units-per-em="1000" ascent="850" descent="-150" />
<missing-glyph horiz-adv-x="1000" />
<glyph glyph-name="artificial-intelligence" unicode="&#xe800;" d="M518 850c-55 0-111-9-165-27-180-59-292-223-286-417 0-3-1-5-2-8l-77-134c-26-44 1-100 52-107l25-4c23-186 35-222 66-250 20-17 57-20 111-6 34 8 71 22 104 39 4-14 10-34 14-61 3-14 16-25 31-25h404c21 0 36 21 29 41-22 61-49 152-47 237 0 37 21 61 50 95 54 63 120 143 80 337-40 195-209 290-389 290z m1-62c149 0 293-73 327-240 35-168-16-227-66-285-31-37-64-75-65-134-1-77 17-155 37-217h-336c-13 57-28 82-30 85-9 14-28 18-42 9-72-45-154-61-173-55-13 12-24 40-45 215-3 25-22 44-47 48l-30 4c-6 1-12 6-7 15l77 135c0 1 0 1 1 2 6 11 9 25 8 38-5 166 91 306 244 357 47 15 97 23 147 23z m52-159c-6 0-11-1-16-4l-68-41c-15-9-19-28-11-42 9-15 28-20 43-11l21 13v-137c0-17 14-30 31-30 17 0 30 13 30 30v192c0 18-14 30-30 30z m-263 0c-40 0-72-32-72-72v-108c0-40 32-72 72-72h45c40 0 72 32 72 72v108c0 40-32 72-72 72z m0-61h45c6 0 11-5 11-11v-108c0-6-5-11-11-11h-45c-6 0-10 5-10 11v108c0 6 4 11 10 11z m23-245c-6 0-11-1-16-4l-68-41c-15-9-19-28-10-43 8-14 27-19 42-10l21 13v-137c0-17 14-31 31-31 17 0 31 14 31 31v191c0 18-15 31-31 31z m217 0c-40 0-72-32-72-72v-109c0-39 32-72 72-72h45c40 0 72 33 72 72v109c0 40-32 72-72 72z m0-61h45c6 0 10-5 10-11v-109c0-5-4-10-10-10h-45c-6 0-10 5-10 10v109c0 6 4 11 10 11z" horiz-adv-x="941" />

<glyph glyph-name="chevron-down" unicode="&#xe801;" d="M1666 766l-55 56c-18 18-41 27-66 27-25 0-48-9-65-27l-633-632-633 633c-18 17-41 27-66 27-25 0-48-10-65-27l-56-55c-36-37-36-95 0-131l754-757c18-18 41-30 66-30h0c25 0 48 12 66 30l753 754c17 18 27 42 27 67 0 24-10 48-27 65z" horiz-adv-x="1693" />

<glyph glyph-name="coding" unicode="&#xe802;" d="M705 850c-25 3-50-14-53-40l-139-906c-4-26 14-50 40-54 2 0 4 0 7 0 23 0 43 17 46 40l139 906c4 26-14 50-40 54z m-333-776l-260 276 260 276c18 19 17 49-2 67-18 17-48 17-66-2l-291-309c-17-18-17-46 0-64l291-309c9-9 22-14 34-14 12 0 23 4 32 13 19 17 20 47 2 66z m873 308l-291 309c-18 19-48 19-67 2-18-18-19-48-1-67l260-276-260-276c-18-19-17-49 1-66 10-9 21-13 33-13 12 0 25 5 34 14l291 309c17 18 17 46 0 64z" horiz-adv-x="1258" />

<glyph glyph-name="close" unicode="&#xe803;" d="M65 850c-17 0-33-6-46-19-25-25-25-66 0-92l389-389-389-389c-25-26-25-67 0-92 13-13 29-19 46-19 16 0 33 6 46 19l389 389 389-389c13-13 30-19 46-19 17 0 33 6 46 19 25 25 25 66 0 92l-389 389 389 389c25 26 25 67 0 92-25 25-66 25-92 0l-389-389-389 389c-13 13-30 19-46 19z" horiz-adv-x="1000" />

<glyph glyph-name="phone-stroke" unicode="&#xe804;" d="M920 194c-61 0-122 9-178 28-29 10-61 2-80-17l-112-85c-131 70-211 150-280 280l83 109c21 22 29 53 20 82-19 57-29 118-29 179 0 44-36 80-80 80h-184c-44 0-80-36-80-80 0-507 413-920 920-920 44 0 80 36 80 80v183c0 45-36 81-80 81z m24-264c0-13-11-24-24-24-477 0-864 387-864 864 0 13 11 24 24 24h184c14 0 25-11 25-24 0-67 10-133 31-196 3-9 0-19-9-28l-95-127c-7-8-8-20-3-29 78-153 173-248 327-327 9-5 21-4 29 3l130 98c6 6 16 8 25 5 63-20 129-31 196-31 13 0 24-11 24-25z" horiz-adv-x="1000" />

<glyph glyph-name="menu" unicode="&#xe805;" d="M126 101c-69 0-126-56-126-125 0-70 56-126 126-126 69 0 125 56 125 126 0 69-56 125-125 125z m0-199c-41 0-74 33-74 74 0 40 33 74 74 74 41 0 74-34 74-74 0-41-33-74-74-74z m782 199c-69 0-125-56-125-125 0-70 56-126 125-126 70 0 126 56 126 126 0 69-57 125-126 125z m0-199c-40 0-74 33-74 74 0 40 33 74 74 74 41 0 74-34 74-74 0-41-33-74-74-74z m-391 199c-69 0-126-56-126-125 0-70 57-126 126-126 69 0 126 56 126 126 0 69-57 125-126 125z m0-199c-41 0-74 33-74 74 0 40 33 74 74 74 41 0 74-34 74-74 0-41-33-74-74-74z m-391 574c-69 0-126-57-126-126 0-69 56-126 126-126 69 0 125 57 125 126 0 69-56 126-125 126z m0-200c-41 0-74 33-74 74 0 41 33 74 74 74 41 0 74-33 74-74 0-41-33-74-74-74z m782 200c-69 0-125-57-125-126 0-69 56-126 125-126 70 0 126 57 126 126 0 69-57 126-126 126z m0-200c-40 0-74 33-74 74 0 41 33 74 74 74 41 0 74-33 74-74 0-41-33-74-74-74z m-391 200c-69 0-126-57-126-126 0-69 57-126 126-126 69 0 126 57 126 126 0 69-57 126-126 126z m0-200c-41 0-74 33-74 74 0 41 33 74 74 74 41 0 74-33 74-74 0-41-33-74-74-74z m-391 574c-69 0-126-56-126-126 0-69 56-125 126-125 69 0 125 56 125 125 0 70-56 126-125 126z m0-199c-41 0-74 33-74 73 0 41 33 74 74 74 40 0 74-33 74-74 0-40-33-73-74-73z m782 199c-69 0-125-56-125-126 0-69 56-125 125-125 70 0 126 56 126 125 0 70-57 126-126 126z m0-199c-40 0-74 33-74 73 0 41 33 74 74 74 41 0 74-33 74-74 0-40-33-73-74-73z m-391 199c-69 0-126-56-126-126 0-69 57-125 126-125 69 0 126 56 126 125 0 70-57 126-126 126z m0-199c-41 0-74 33-74 73 0 41 33 74 74 74 41 0 74-33 74-74 0-40-33-73-74-73z" horiz-adv-x="1034" />

<glyph glyph-name="smartphone" unicode="&#xe806;" d="M57 850c-31 0-57-26-57-57v-886c0-31 26-57 57-57h486c31 0 57 26 57 57v158c0 0 0 1 0 2 0 1 0 2 0 2v81c0 8-7 15-14 15-8 0-15-7-15-15v-69h-542v595h542v-142c0-7 7-14 15-14 8 0 14 7 14 14v259c0 31-26 57-57 57z m0-29h486c16 0 28-12 28-28v-89h-542v89c0 16 13 28 28 28z m171-43c-8 0-14-6-14-14 0-8 6-14 14-14h84c7 0 14 6 14 14 0 8-7 14-14 14z m132 0c-8 0-14-6-14-14 0-8 6-14 14-14h12c8 0 14 6 14 14 0 8-6 14-14 14z m226-329c-8 0-15-7-15-15v-42c0-8 7-14 15-14 8 0 14 6 14 14v42c0 8-6 15-14 15z m0-143c-8 0-15-6-15-14v-41c0-8 7-15 15-15 8 0 14 7 14 15v41c0 8-6 14-14 14z m-557-253h542v-146c0-16-13-28-28-28h-486c-15 0-28 12-28 28z m271-31c-28 0-51-23-51-52 0-28 23-51 51-51 28 0 51 23 51 51 0 29-23 52-51 52z m0-29c13 0 23-10 23-22 0-13-10-23-23-23-13 0-23 10-23 23 0 12 10 22 23 22z" horiz-adv-x="600" />

<glyph glyph-name="phone-call-alter" unicode="&#xe807;" d="M500 850c-276 0-500-224-500-500 0-95 27-188 78-268l-77-210c-2-6-1-12 4-17 3-3 7-5 12-5 1 0 3 0 5 1l217 72c79-48 169-73 261-73 276 0 500 224 500 500 0 276-224 500-500 500z m0-967c-88 0-175 25-249 73-3 1-6 2-9 2-2 0-4 0-6-1l-192-64 68 185c2 5 1 11-2 15-50 77-77 165-77 257 0 257 210 467 467 467 257 0 467-210 467-467 0-257-210-467-467-467z m223 389c-25 3-49 9-72 17-25 10-55 4-74-15l-25-25c-56 34-103 81-137 137l25 25c19 19 25 48 15 74-8 23-14 47-17 71-5 35-35 62-71 61h-80c-2 0-4 0-6-1-19-1-36-10-48-24-12-15-18-33-16-52 9-85 38-168 85-239 42-67 99-124 166-166 71-46 154-75 239-85 2 0 4 0 6 0 19 0 37 7 50 21 13 13 20 31 20 49v81c1 35-25 66-60 71z m27-71v-81c0-9-4-19-11-26-7-7-16-11-26-11-1 0-2 0-3 0-79 9-157 37-224 80-63 40-116 93-156 156-44 67-71 145-80 224-1 10 2 20 9 27 6 8 15 12 25 13 1 0 2 0 3 0h81c0 0 0 0 0 0 18 0 34-13 37-31 3-27 10-54 19-79 5-14 2-29-8-39l-34-34c-5-5-6-13-3-20 40-70 98-127 167-167 7-3 15-2 20 3l34 34c11 10 26 13 39 8 26-9 52-16 79-19 19-3 33-19 32-38 0 0 0 0 0 0z" horiz-adv-x="1000" />

<glyph glyph-name="at-symbol" unicode="&#xe808;" d="M500 850c-134 0-259-52-354-146-94-95-146-220-146-354 0-134 52-259 146-354 95-94 220-146 354-146 68 0 133 13 195 39l-24 57c-54-23-112-34-171-34-242 0-438 196-438 438 0 242 196 438 438 438 242 0 438-196 438-438 0-106-65-154-125-154-61 0-126 48-126 154 0 103-84 187-187 187-103 0-187-84-187-187 0-103 84-187 187-187 61 0 116 29 150 75 9-18 20-34 33-48 34-36 80-56 130-56 49 0 95 20 130 56 37 39 57 95 57 160 0 134-52 259-146 354-95 94-220 146-354 146z m0-375c69 0 125-56 125-125 0-69-56-125-125-125-69 0-125 56-125 125 0 69 56 125 125 125z" horiz-adv-x="1000" />

<glyph glyph-name="location" unicode="&#xe809;" d="M401 699c-140 0-255-114-255-254 0-140 115-255 255-255 140 0 254 115 254 255 0 140-114 254-254 254z m0-452c-109 0-198 89-198 198 0 109 89 198 198 198 109 0 198-89 198-198 0-109-89-198-198-198z m0 603c-221 0-401-180-401-401 0-25 2-50 7-75 0-2 1-6 3-13 6-28 15-54 27-80 43-101 138-257 346-425 6-4 12-6 18-6 6 0 13 2 18 6 208 168 303 324 346 425 12 26 21 52 27 80 2 7 3 11 3 13 5 25 7 50 7 75 0 221-180 401-401 401z m338-466c0-1 0-1 0-1-1-2-1-5-2-9 0-1 0-1 0-1-6-23-13-46-24-68 0 0 0-1 0-1-39-93-125-235-312-389-187 154-273 296-312 389 0 0 0 1-1 1-10 22-18 45-23 68 0 0 0 0 0 1-1 4-2 7-2 9 0 0 0 0 0 1-4 22-6 43-6 65 0 190 154 345 344 345 190 0 344-155 344-345 0-22-2-44-6-65z" horiz-adv-x="802" />

<glyph glyph-name="burger-menu" unicode="&#xe80a;" d="M1056-39h-1000c-31 0-56-25-56-55 0-31 25-56 56-56h1000c30 0 55 25 55 56 0 30-25 55-55 55z m-1000 778h1000c30 0 55 25 55 55 0 31-25 56-55 56h-1000c-31 0-56-25-56-56 0-30 25-55 56-55z m1000-333h-1000c-31 0-56-25-56-56 0-31 25-56 56-56h1000c30 0 55 25 55 56 0 31-25 56-55 56z" horiz-adv-x="1111" />

<glyph glyph-name="call" unicode="&#xe80b;" d="M500 850a500 500 0 0 1-443-733l-26-220a14 14 0 0 1 14-16 14 14 0 0 1 2 0l211 31a502 502 0 0 1 242-62 501 501 0 0 1 500 500 485 485 0 0 1-3 51 14 14 0 0 1-28-3 459 459 0 0 0 2-48 471 471 0 0 0-703-411 14 14 0 0 1-10 2 15 15 0 0 1 0 0 14 14 0 0 1-1 0 15 15 0 0 1 0 0l-195-29 24 204a14 14 0 0 1-1 9 14 14 0 0 1 0 1 14 14 0 0 1 0 0 14 14 0 0 1-1 1l0 0a472 472 0 0 0 416 694 467 467 0 0 0 276-89 14 14 0 0 1 16 23 495 495 0 0 1-292 95z m358-158a14 14 0 0 1-10-24c10-11 18-21 26-31a14 14 0 0 1 11-6v0a14 14 0 0 1 12 23c-8 11-17 22-28 33a14 14 0 0 1-11 5z m-548-70a31 31 0 0 1-22-9l-41-41c-53-53 8-196 144-331 102-103 209-163 278-163a72 72 0 0 1 52 19l42 41a31 31 0 0 1 0 44l-98 98a32 32 0 0 1-44 0l-22-23c-5-5-20-4-43 6a304 304 0 0 0-82 61c-62 62-77 115-67 125l23 23a31 31 0 0 1 0 43l-98 98a31 31 0 0 1-22 9z m0-28a2 2 0 0 0 1-1l98-98a3 3 0 0 0 0-3l-23-23c-32-32 10-107 68-165a333 333 0 0 1 90-67c43-19 64-11 75 0l23 23a3 3 0 0 0 3 0l98-98a2 2 0 0 0 0-3l-42-42c-34-34-162 16-290 144-128 128-179 256-144 291l41 41a2 2 0 0 0 2 1z m630-23a14 14 0 0 1-14-20c6-12 12-26 17-41a14 14 0 0 1 14-9 14 14 0 0 1 5 1 14 14 0 0 1 8 18c-6 16-12 30-18 44a14 14 0 0 1-12 7z" horiz-adv-x="1000" />

<glyph glyph-name="check" unicode="&#xe80c;" d="M1143 957c-25 0-51-10-70-29l-626-627-232 232c-39 39-101 39-140 0l-46-46c-39-39-39-101 0-140l371-371c13-13 29-20 47-20 17 0 34 7 46 20l766 766c39 38 39 101 0 139l-46 47c-20 19-45 29-70 29z" horiz-adv-x="1288" />

<glyph glyph-name="chevron-left" unicode="&#xe80d;" d="M197 350l375 374c10 10 16 24 16 39 0 14-6 28-16 38l-33 33c-11 10-24 16-39 16-15 0-28-6-39-16l-445-445c-10-11-16-24-16-39 0-15 6-29 16-39l445-445c10-10 24-16 39-16 14 0 28 6 38 16l33 33c21 21 21 56 0 77z" horiz-adv-x="587" />

<glyph glyph-name="edit" unicode="&#xe80e;" d="M814 850c-22 0-43-8-60-25l-652-652c-3-3-6-7-7-11l-93-271c-9-24 15-48 39-39l271 93c4 1 8 4 12 7 22 23 629 630 651 652 33 33 33 87 0 120l-101 101c-17 17-39 25-60 25z m0-62c6 0 11-2 16-7l101-101c9-9 9-23 0-32l-63-63c-87 87-28 29-133 133l63 63c4 5 10 7 16 7z m-667-57c-17 0-31-14-31-31v-205c0-17 14-31 31-31 17 0 31 14 31 31v174h174c18 0 31 14 31 31 0 17-13 31-31 31z m544-57l45-44-523-523-45 45z m89-88l44-45c-6-7-516-516-522-523l-45 45z m70-353c-17 0-31-13-31-31v-174h-174c-17 0-31-14-31-31 0-17 14-31 31-31h205c17 0 31 14 31 31v205c0 18-14 31-31 31z m-713-139l108-107-164-56z" horiz-adv-x="1000" />

<glyph glyph-name="computer-code" unicode="&#xe80f;" d="M105 904c-58 0-105-47-105-105v-541c0-58 47-105 105-105h347l-11-180h-79c-19 0-35-15-35-35 0-19 16-35 35-35h417c19 0 35 16 35 35 0 20-16 35-35 35h-79l-11 180h347c58 0 105 47 105 105v541c0 58-47 105-105 105z m0-70h931c20 0 35-16 35-35v-541c0-19-15-35-35-35h-931c-19 0-35 16-35 35v541c0 19 16 35 35 35z m525-118c-13 0-26-8-31-22l-121-305c-8-18 1-39 19-46 18-7 38 2 46 20l121 305c7 18-2 39-20 46-4 2-9 2-14 2z m113 0c-8 0-16-2-22-8-15-12-17-34-4-49l109-130-109-131c-13-15-11-37 4-49 15-12 37-11 49 4l128 153c11 13 11 32 0 45l-128 153c-7 8-17 12-27 12z m-345 0c-10 0-20-4-27-12l-128-153c-11-13-11-32 0-45l128-153c13-15 35-16 49-4 15 12 17 34 5 49l-110 131 110 130c12 15 10 37-5 49-6 6-14 8-22 8z m124-563h97l11-180h-119z" horiz-adv-x="1141" />

<glyph glyph-name="pencil" unicode="&#xe810;" d="M986 850c-1 0-2 0-3-1l-235-77c-2 0-4-2-5-3l-707-708c-48-48-48-126 0-175 49-48 127-48 175 0l708 707c1 1 3 3 3 5l77 235c2 5 1 10-3 13-2 3-6 4-10 4z m-20-33l-24-74-49 50z m-100-34l67-68-32-97-101 32-33 101z m-121-48l29-91-504-504-59 59z m47-110l93-29-536-535-61 60z m-600-444l139-139-80-79-138 138z m-98-98l139-138-40-40c-38-38-100-38-138 0-38 38-38 100 0 138z" horiz-adv-x="1000" />

<glyph glyph-name="quote-left" unicode="&#xe811;" d="M911 16l-335 0 0 335q0 139 99 236t236 98l0-111q-93 0-158-66t-65-157l223 0 0-335z m-558 0l-335 0 0 335q0 139 98 236t237 98l0-111q-93 0-158-66t-65-157l223 0 0-335z" horiz-adv-x="928" />

<glyph glyph-name="layers" unicode="&#xe812;" d="M981 384l-209 92 209 91c15 7 25 22 25 40 0 18-10 33-25 39l-298 130c-7 4-16 0-19-7-4-8 0-16 7-20l299-130c4-2 6-8 6-12 0-5-2-11-6-13l-444-194c-15-6-31-6-46 0l-444 194c-5 2-6 8-6 13 0 4 1 10 6 12l443 194c16 6 32 6 47 0l83-36c7-4 16 0 19 7 3 8 0 16-8 20l-82 36c-23 10-48 10-71 0l-443-194c-15-6-24-22-24-39 0-18 9-33 24-40l210-92-67-29c-7-3-10-12-7-20 3-7 12-10 19-7l92 40 197-86c11-5 23-8 35-8 12 0 24 3 35 8l197 86 235-102c4-2 6-8 6-13 0-4-2-10-6-12l-444-194c-15-7-31-7-46 0l-444 194c-5 2-6 8-6 12 0 5 1 11 6 13l80 35c8 3 11 12 8 19-3 8-12 11-19 8l-81-35c-15-7-24-22-24-40 0-18 9-33 24-40l210-91-27-12c-7-3-11-12-7-20 2-5 7-8 13-8 2 0 4 0 6 1l38 17c4 1 7 4 8 8l203-89c11-5 23-7 35-7 12 0 24 2 35 7l443 194c15 7 25 22 25 40 0 18-10 33-25 40z m-164-191l-39 17c-7 3-16 0-19-8-4-7 0-16 7-19l39-17c2-1 4-1 6-1 5 0 11 3 13 9 3 7 0 16-7 19z m-253-301l-38-17c0 0 0 0 0 0-7-3-11-12-7-19 2-6 7-9 13-9 2 0 4 0 6 1 0 0 0 0 0 0l38 17c8 3 11 12 8 19-4 8-12 11-20 8z m223 97l-39-16c-7-4-10-12-7-20 2-5 8-9 13-9 2 0 4 1 6 2l38 16c8 4 11 12 8 20-3 7-12 10-19 7z m-112-48l-38-17c-7-3-11-12-7-20 2-5 7-8 13-8 2 0 4 0 6 1l38 16c8 4 11 12 8 20-3 8-12 11-20 8z m309 165c-7-2-12-11-9-18 1-2 1-4 1-6 0-5-1-10-6-13-7-3-10-12-6-19 2-6 7-9 13-9 2 0 4 1 6 2 14 7 23 22 23 39 0 5-1 11-3 15-3 8-11 12-19 9z m-86-68l-38-17c-8-3-11-12-8-19 2-6 8-9 13-9 2 0 4 0 6 1l39 17c7 3 10 12 7 19-3 8-12 11-19 8z m30 107l-39 16c-7 4-16 0-19-7-3-8 0-16 8-20l38-16c2-1 4-2 6-2 5 0 11 4 13 9 4 8 0 17-7 20z m-800-116l-38 17c-8 3-16 0-20-8-3-7 1-16 8-19l38-17c2-1 4-1 6-1 6 0 11 3 14 9 3 7 0 16-8 19z m6 140l-38-16c-8-4-11-12-8-20 3-5 8-9 14-9 2 0 4 1 6 2l38 16c7 4 11 12 8 20-4 7-12 11-20 7z m328-286l-39 17c-7 3-16 0-19-8-3-7 0-16 8-19l38-17c2-1 4-1 6-1 5 0 11 3 13 9 4 7 0 16-7 19z m-440 237c-14-7-22-21-22-38 0-6 1-11 3-16 2-6 8-10 14-10 1 0 3 0 5 1 7 3 11 11 9 19-1 1-1 4-1 6 0 4 1 10 6 12 7 4 10 13 6 20-4 7-12 10-20 6z m328-188l-38 16c-7 4-16 0-19-7-4-8 0-16 7-20l39-16c2-1 4-2 6-2 5 0 11 4 13 9 3 8 0 16-8 20z m-111 48l-38 17c-7 3-16 0-19-8-4-7 0-16 7-19l38-17c2-1 4-1 6-1 6 0 11 3 14 9 3 7 0 16-8 19z" horiz-adv-x="1006" />

<glyph glyph-name="play" unicode="&#xe813;" d="M50 850c-9 0-18-2-25-7-16-9-25-25-25-43v-900c0-18 9-34 25-43 8-5 16-7 25-7 8 0 17 2 25 6l800 450c15 9 25 26 25 44 0 18-10 35-25 44l-800 450c-8 4-17 6-25 6z" horiz-adv-x="900" />

<glyph glyph-name="chevron-up" unicode="&#xe814;" d="M1675 65l-758 758c-18 17-41 27-66 27-25 0-49-10-66-27l-758-758c-17-17-27-40-27-66 0-24 10-48 27-65l56-56c18-18 41-27 66-27 25 0 48 9 66 27l636 636 637-637c17-17 40-27 65-27 25 0 49 10 66 27l56 56c36 36 36 95 0 132z" horiz-adv-x="1702" />

<glyph glyph-name="send" unicode="&#xe815;" d="M991 841c-8 9-20 11-31 7l-942-377c-10-4-18-14-18-26 0-11 6-22 17-27l371-180 180-372c5-10 15-16 26-16 1 0 1 0 1 0 12 0 22 8 26 18l377 942c4 11 2 23-7 31z m-889-399l747 299-445-446z m490-490l-147 302 446 445z" horiz-adv-x="1000" />

<glyph glyph-name="vector" unicode="&#xe816;" d="M88 850c-49 0-88-39-88-88 0-48 39-88 88-88 38 0 71 25 83 59h109c-136-79-221-223-221-381 0-16 13-29 29-29 16 0 29 13 29 29 0 177 125 331 295 371v-19c0-17 13-30 29-30h118c16 0 29 13 29 30v19c170-40 295-194 295-371 0-16 13-29 29-29 16 0 29 13 29 29 0 157-85 302-221 381h109c12-34 45-59 83-59 49 0 88 40 88 88 0 49-39 88-88 88-38 0-71-24-83-59h-241v30c0 16-13 29-29 29h-118c-16 0-29-13-29-29v-30h-241c-12 35-45 59-83 59z m0-59c16 0 29-13 29-29 0-16-13-29-29-29-16 0-29 13-29 29 0 16 13 29 29 29z m383 0h58v-58h-58z m441 0c16 0 29-13 29-29 0-16-13-29-29-29-16 0-29 13-29 29 0 16 13 29 29 29z m-412-175c-10 0-21-6-26-17l-205-412c-5-9-4-20 2-29l112-170v-109c0-16 13-29 29-29h176c16 0 29 13 29 29v109l113 170c5 9 6 20 1 29l-205 412c-5 11-15 17-26 17z m-29-154v-288c0-16 13-29 29-29 16 0 29 13 29 29v288l142-286-99-150h-144l-99 150z m-30-495h118v-58h-118z" horiz-adv-x="1000" />

<glyph glyph-name="phone-settings" unicode="&#xe817;" d="M507 850c-48 0-89-32-101-79h-44c-7 0-13-5-14-12l-7-79c-34-8-66-22-96-40l-60 50c-6 5-13 4-18-1l-85-84c-5-5-5-13-1-18l50-61c-18-29-31-62-40-95l-79-8c-7-1-12-7-12-14v-119c0-7 5-13 12-14l79-7c9-33 23-65 41-95l-51-61c-4-5-4-13 1-18l85-84c5-5 13-6 18-1l61 50c29-18 61-31 95-40l8-79c1-7 6-12 13-12h45c12-46 53-79 101-79h362c57 0 104 47 104 104v792c-1 57-47 104-105 104z m0-27h362c43 0 77-34 77-77v-32h-32c0 0-1 0-1 0-2 0-4 0-7 0h-107-369v32c0 43 35 77 77 77z m-133-79h29v-149c-136-10-237-128-227-263 10-122 106-218 227-227v-149h-29l-7 76c-1 6-5 11-11 12-37 8-72 23-104 44-5 4-12 3-16 0l-59-49-67 67 49 58c4 5 4 12 1 17-21 31-36 67-44 104-1 6-6 10-12 11l-76 7v95l76 7c6 1 11 5 12 11 8 37 23 72 44 104 3 5 3 11-1 16l-49 59 67 66 59-48c4-4 11-4 16-1 32 21 67 36 104 44 6 1 10 6 11 12z m539-57c0 0 1 0 1 0h32v-647h-516v647h369 107c3 0 5 0 7 0z m-510-118v-437c-120 10-210 116-200 237 9 106 94 191 200 200z m27-556h516v-59c0-42-34-77-77-77h-362c-42 0-77 35-77 77z m258-20c-26 0-47-22-47-48 0-26 21-47 47-47 26 0 48 21 48 47 0 26-22 48-48 48z m0-27c11 0 20-10 20-21 0-11-9-20-20-20-11 0-20 9-20 20 0 11 9 21 20 21z" horiz-adv-x="974" />

<glyph glyph-name="phone" unicode="&#xe818;" d="M80 850c-44 0-80-36-80-80 0-507 413-920 920-920 44 0 80 36 80 80v183c0 45-36 81-80 81-61 0-122 9-178 28-28 10-63 1-80-17l-112-85c-131 70-211 150-280 280l83 109c21 22 29 53 20 82-19 57-29 118-29 179 0 44-36 80-80 80z" horiz-adv-x="1000" />

<glyph glyph-name="verified" unicode="&#xe819;" d="M422 850c-5 0-10-1-15-3l-383-159c-14-6-24-20-24-36v-193c0-266 161-506 407-606 10-4 20-4 30 0 246 100 407 340 407 606v193c0 16-10 30-24 36l-383 159c-5 2-10 3-15 3z m0-81l344-143v-167c0-226-133-435-344-528-205 91-344 296-344 528v167z m152-262c-10 0-20-4-27-12l-168-168-82 82c-15 15-40 15-55 0-15-16-15-40 0-56l109-109c15-15 40-15 55 0l196 196c15 15 15 40 0 55-8 8-18 12-28 12z" horiz-adv-x="844" />

<glyph glyph-name="file" unicode="&#xe81a;" d="M14 850a14 14 0 0 1-14-14v-255a14 14 0 0 1 29 0v240h500v-200a14 14 0 0 1 14-14h200v-728h-714v318a14 14 0 0 1-29 0v-333a14 14 0 0 1 14-14h743a14 14 0 0 1 14 14v757a14 14 0 0 1 0 1 14 14 0 0 1 0 1 14 14 0 0 1 0 0 14 14 0 0 1 0 1 14 14 0 0 1 0 1 14 14 0 0 1 0 0 14 14 0 0 1 0 1 14 14 0 0 1-1 1 14 14 0 0 1 0 0 14 14 0 0 1 0 1 14 14 0 0 1 0 1 14 14 0 0 1-1 0 14 14 0 0 1 0 1 14 14 0 0 1-1 0 14 14 0 0 1 0 1 14 14 0 0 1-1 1 14 14 0 0 1 0 0l-214 214a14 14 0 0 1 0 0 14 14 0 0 1-1 1 14 14 0 0 1 0 0 14 14 0 0 1-1 0 14 14 0 0 1 0 1 14 14 0 0 1-1 0 14 14 0 0 1-1 0 14 14 0 0 1 0 1 14 14 0 0 1-1 0 14 14 0 0 1-1 0 14 14 0 0 1 0 1 14 14 0 0 1-1 0 14 14 0 0 1-1 0 14 14 0 0 1 0 0 14 14 0 0 1-1 0 14 14 0 0 1-1 0 14 14 0 0 1 0 0z m543-49l166-165h-166z m-179-159a14 14 0 0 1-15-14v-85a14 14 0 0 1 11-15 114 114 0 0 0 85-86 15 15 0 0 1 15-11 14 14 0 0 1 2 0h83a14 14 0 0 1 14 17 227 227 0 0 1-194 194 14 14 0 0 1-1 0z m-58 0a14 14 0 0 1-1 0 227 227 0 0 1-194-194 14 14 0 0 1 14-17h84a13 13 0 0 1 2 0 14 14 0 0 1 14 11 114 114 0 0 0 85 86 16 16 0 0 1 11 17v83a14 14 0 0 1-15 14z m-14-31v-59a143 143 0 0 1-92-92h-58a198 198 0 0 0 150 151z m86 0a198 198 0 0 0 150-151h-58 0a143 143 0 0 1-92 92z m-377-116a14 14 0 0 1-15-14v-41a14 14 0 0 1 14-15 14 14 0 0 1 15 15v41a14 14 0 0 1-14 14z m458-91a14 14 0 0 1-14-12 109 109 0 0 0-14-35 15 15 0 0 1 4-20l59-58a14 14 0 0 1 10-4c0 0 0 0 1 0a14 14 0 0 1 10 5 224 224 0 0 1 44 107 14 14 0 0 1-14 16h-84a14 14 0 0 1-2 1z m-248 0a15 15 0 0 1-3-1h-83a14 14 0 0 1-14-16 227 227 0 0 1 194-194 14 14 0 0 1 2 0h0a14 14 0 0 1 14 14v84a14 14 0 0 1-11 16 114 114 0 0 0-85 85 15 15 0 0 1-14 12z m-69-29h58a143 143 0 0 1 92-93v-58a198 198 0 0 0-150 151z m328 0h58a196 196 0 0 0-26-64l-41 41a138 138 0 0 1 9 23z m-469-21a14 14 0 0 1-15-14v-43a14 14 0 0 1 14-14 14 14 0 0 1 15 14v43a14 14 0 0 1-14 14z m402-30a14 14 0 0 1-8-2 109 109 0 0 0-35-15 16 16 0 0 1-11-17v-83a14 14 0 0 1 14-14 14 14 0 0 1 2 0 224 224 0 0 1 107 45 14 14 0 0 1 2 21l-59 59a14 14 0 0 1-12 6z m-3-32l42-41a197 197 0 0 0-64-27v58a139 139 0 0 1 22 10z m-252-175a14 14 0 0 1 0-28h447a14 14 0 0 1 0 28z m0-110a14 14 0 0 1 0-28h447a14 14 0 0 1 0 28z" horiz-adv-x="771" />

<glyph glyph-name="search" unicode="&#xe81b;" d="M404 850c-223 0-404-181-404-404 0-222 181-403 404-403 83 0 163 25 231 73l240-250c10-10 23-16 38-16 14 0 27 5 36 15 21 20 22 53 2 74l-238 248c61 73 95 164 95 259 0 223-182 404-404 404z m0-105c164 0 298-134 298-299 0-164-134-298-298-298-165 0-299 134-299 298 0 165 134 299 299 299z" horiz-adv-x="965" />

<glyph glyph-name="phone-call" unicode="&#xe81c;" d="M552 850c-13 0-25-10-27-24-3-15 8-30 23-33 99-16 188-63 260-134 71-71 117-161 134-259 2-14 14-24 28-24 2 0 3 0 5 0 15 3 26 18 23 33-19 110-71 210-150 290-80 80-180 132-291 151-1 0-3 0-5 0z m-361-58c-26 0-51-11-72-31l-1 0-71-73c-27-27-43-60-46-98-5-61 13-119 27-156 34-93 85-178 161-270 93-110 204-197 331-259 49-23 113-50 186-55 4 0 9 0 13 0 49 0 90 17 122 52 0 1 1 1 1 1 11 14 23 26 37 39 9 8 18 17 27 27 21 22 32 47 32 73 0 26-11 51-32 72l-116 117c-21 21-46 32-72 32-26 0-51-11-72-32l-67-67c-5 3-11 6-16 9-7 4-15 7-21 11-62 40-119 91-173 158-27 34-45 62-57 90 17 16 33 32 49 48 5 6 11 12 17 18 45 45 45 102 0 146l-57 58c-7 6-14 13-20 20-13 13-26 27-40 39-20 20-45 31-70 31z m0-57c13 0 24-8 31-15l1 0c12-12 25-25 38-38 6-7 13-13 20-20l57-58c23-22 23-43 0-65-6-7-12-13-18-19-18-18-35-35-53-51 0-1-1-1-1-1-18-18-15-36-11-48l1-2c15-36 36-70 68-111l0 0c58-72 120-128 187-171 9-5 18-10 26-14 8-4 15-7 21-11 1-1 2-1 3-2 7-3 14-5 21-5 17 0 28 11 32 15l72 72c7 7 19 16 32 16 13 0 24-9 30-16l1 0 116-117c22-21 22-43 0-66-8-9-16-17-26-26-13-13-27-26-40-42-22-23-47-33-80-33-3 0-6 0-9 0-63 4-121 28-165 49-119 58-224 140-311 244-72 87-121 167-152 253-20 53-27 94-24 133 2 24 12 45 29 62l72 72c10 10 21 15 32 15z m353-66c-13-1-25-10-27-24-3-15 7-30 23-33 55-9 105-35 145-75 40-40 66-91 76-146 2-14 14-24 28-24 2 0 3 1 5 1 15 2 26 17 23 33-11 67-43 128-91 176-48 48-109 80-176 91-2 1-4 1-6 1z" horiz-adv-x="999" />

<glyph glyph-name="web-page" unicode="&#xe81d;" d="M43 850a43 43 0 0 1-43-43v-914a43 43 0 0 1 43-43h202a14 14 0 0 1 0 29h-202a14 14 0 0 0-14 14v714h942v-714a14 14 0 0 0-14-14h-328a14 14 0 0 1 0-29h328a43 43 0 0 1 43 43v914a43 43 0 0 1-43 43z m0-29h914a14 14 0 0 0 14-14v-171h-942v171a14 14 0 0 0 14 14z m609-75a14 14 0 0 1 0-29h16a14 14 0 0 1 0 29z m106 0a14 14 0 0 1 0-29h15a14 14 0 0 1 0 29z m105 0a14 14 0 0 1 0-29h16a14 14 0 0 1 0 29z m-524-328a14 14 0 0 1-13-19l116-325a14 14 0 0 1 12-9h1a14 14 0 0 1 13 8l61 121 101-102a14 14 0 0 1 11-4 14 14 0 0 1 10 25l-102 101 121 61a14 14 0 0 1-1 26l-325 116a14 14 0 0 1-5 1z m24-38l264-94-109-55a14 14 0 0 1-6-6l-55-109z m-18-501a14 14 0 0 1 0-29h41a14 14 0 0 1 0 29z m141 0a14 14 0 0 1 0-29h43a14 14 0 0 1 0 29z" horiz-adv-x="1000" />

<glyph glyph-name="web" unicode="&#xe81e;" d="M126 850c-70 0-126-56-126-126v-748c0-70 56-126 126-126h882c69 0 125 56 125 126v748c0 70-56 126-125 126z m-5-32h891c49 0 89-40 89-89v-143h-1069v143c0 49 40 89 89 89z m17-59c-33 0-60-26-60-59 0-33 27-60 60-60 33 0 59 27 59 60 0 32-26 59-59 59z m182 0c-33 0-60-27-60-60 0-33 27-59 60-59 32 0 59 26 59 59 0 33-27 60-59 60z m182-1c-33 0-59-27-59-59 0-33 26-60 59-60 32 0 59 27 59 60 0 32-27 59-59 59z m-364-24c19 0 34-15 34-34 0-19-16-34-34-34-19 0-34 15-34 34 0 19 15 34 34 34z m182-2c18 0 33-15 33-33 0-18-15-33-33-33-18 0-33 15-33 33 0 18 15 33 33 33z m182 0c18 0 33-15 33-34 0-18-15-33-33-33-19 0-34 15-34 33 0 19 15 34 34 34z m-470-178h1069v-583c0-49-40-89-89-89h-891c-49 0-89 40-89 89z m567-113c-8 0-16-6-18-15l-75-358c-3-10 4-20 14-22 1-1 3-1 4-1 9 0 16 6 18 15l76 358c2 11-5 20-15 23-1 0-2 0-4 0z m-152-75c-4 0-8-1-12-4l-121-103c-4-4-7-9-7-14 0-6 3-11 7-15l121-103c4-3 8-4 12-4 6 0 11 2 15 6 6 8 5 20-2 27l-105 89 105 88c8 7 8 19 2 27-4 4-10 7-15 6z m240 0c-6 0-11-2-15-6-7-8-6-20 2-27l104-88-104-89c-8-7-9-19-2-27 4-4 9-6 14-6 5 0 9 1 13 4l121 103c4 4 6 9 6 15 0 5-2 10-6 14l-121 103c-4 3-8 4-12 4z" horiz-adv-x="1133" />

<glyph glyph-name="plus" unicode="&#xe81f;" d="M476 850v-476h-476v-48h476v-476h48v476h476v48h-476v476z" horiz-adv-x="1000" />

<glyph glyph-name="mac" unicode="&#xe820;" d="M84 850c-47 0-84-37-84-84v-649c0-47 37-84 84-84h412v-99h-111c-23 0-42-19-42-42 0-23 19-42 42-42h306c23 0 42 19 42 42 0 23-19 42-42 42h-111v99h413c47 0 84 37 84 84v649c0 47-37 84-84 84z m0-84h909v-434h-909l0 434c0 0 0 0 0 0z m0-518h909v-131h-909z" horiz-adv-x="1077" />

<glyph glyph-name="text" unicode="&#xe821;" d="M16 850a16 16 0 0 1-16-16v-129a16 16 0 0 1 16-16h49v-678h-49a16 16 0 0 1-16-16v-129a16 16 0 0 1 16-16h129a16 16 0 0 1 16 16v48h678v-48a16 16 0 0 1 16-16h129a16 16 0 0 1 16 16v129a16 16 0 0 1-16 16h-48v678h48a16 16 0 0 1 16 16v129a16 16 0 0 1-16 16h-129a16 16 0 0 1-16-16v-48h-678v48a16 16 0 0 1-16 16z m16-32h97v-97h-97z m839 0h97v-97h-97z m-710-65h678v-48a16 16 0 0 1 16-16h48v-678h-48a16 16 0 0 1-16-16v-48h-678v48a16 16 0 0 1-16 16h-48v678h48a16 16 0 0 1 16 16z m146-161a16 16 0 0 1-17-16v-129a16 16 0 0 1 17-16h30a16 16 0 0 1 15 11l15 53h85v-310l-53-13a16 16 0 0 1-12-15v-33a16 16 0 0 1 16-16h194a16 16 0 0 1 16 16v33a16 16 0 0 1-12 15l-53 13v310h85l15-53a16 16 0 0 1 15-11h31a16 16 0 0 1 16 16v129a16 16 0 0 1-16 16z m16-32h354v-97h-1l-15 53a16 16 0 0 1-16 11h-113a16 16 0 0 1-16-16v-338a16 16 0 0 1 12-16l53-13v-4h-162v4l53 13a16 16 0 0 1 12 16v338a16 16 0 0 1-16 16h-113a16 16 0 0 1-16-11l-14-53h-2z m-33-484a16 16 0 0 1 0-32h420a16 16 0 0 1 0 32z m146-49a16 16 0 0 1 0-32h129a16 16 0 0 1 0 32z m-404-48h97v-97h-97z m839 0h97v-97h-97z" horiz-adv-x="1000" />

<glyph glyph-name="debug" unicode="&#xe822;" d="M31 850c-17 0-31-14-31-31v-938c0-17 14-31 31-31h938c17 0 31 14 31 31v938c0 17-14 31-31 31z m30-62h227l39-122c4-13 16-22 29-22h583v-732h-878z m291 0h587v-82h-560z m-213-40c-17 0-31-14-31-31 0-17 14-30 31-30h78c17 0 30 13 30 30 0 17-13 31-30 31z m195-272c-34 0-62-28-62-63v-88h-13c-16 0-31-13-31-29-1-18 13-33 30-33h14v-91c0-35 28-63 62-63h36c17 0 31 13 32 30 1 17-13 32-31 32h-28c-5 0-10 4-10 10v223c0 6 5 11 10 11h27c17 0 31 12 32 29 1 18-13 32-31 32z m296 0c-17 0-31-12-32-29-1-18 14-32 31-32h28c6 0 10-5 10-11v-223c0-6-4-10-10-10h-27c-17 0-31-13-32-29-1-18 14-33 31-33h37c34 0 63 28 63 63v89h12c17 0 31 12 32 29 0 18-14 32-31 32h-13v91c0 35-29 63-63 63z m-90-5c-14 0-26-9-30-23l-79-295c-4-16 5-33 22-38 16-4 33 6 37 22l79 295c5 17-5 34-22 38-2 1-5 1-7 1z" horiz-adv-x="1000" />

<glyph glyph-name="computer-success" unicode="&#xe823;" d="M402 850c-126-1-229-96-250-213h-105c-47 0-85-38-85-85v-422c0-47 38-85 85-85h267l-8-134h-87c-16 0-30-13-30-30 0-17 14-31 30-31h382c17 0 31 14 31 31 0 17-14 30-31 30h-87l-7 134h267c47 0 85 38 85 85v422c0 47-38 85-85 85h-117c-20 118-122 211-249 213-2 0-4 0-6 0z m5-61c106-2 192-89 192-195 0-68-37-133-97-168-26-15-44-40-50-68h-95c-6 28-24 53-50 68-61 35-98 101-97 171 1 105 91 193 197 192z m85-93c-8 0-16-3-21-9l-100-99-35 35c-12 12-31 12-43 0-12-12-12-31 0-43l57-57c12-12 31-12 43 0l121 121c12 12 12 31 0 43-6 6-14 9-22 9z m-445-120h103c6-84 53-160 126-203 14-8 23-23 23-39v-95c0-29 23-52 51-52h109c28 0 51 23 51 52v95c0 16 9 31 23 39 72 42 120 118 126 203h115c0 0 0 0 0 0 13 0 24-11 24-24v-422c0-13-11-24-24-24h-727c-13 0-24 11-24 24v422c0 13 11 24 24 24 0 0 0 0 0 0z m313-279h89v-48h-89z m277-66c-17 0-30-14-30-31v-32c0-17 13-30 30-30 17 0 31 13 31 30v32c0 17-14 31-31 31z m83 0c-17 0-31-14-31-31v-32c0-17 14-30 31-30 17 0 31 13 31 30v32c0 17-14 31-31 31z m-344-186h69l8-134h-85z" horiz-adv-x="897" />

<glyph glyph-name="chevron-right" unicode="&#xe824;" d="M572 389l-445 445c-11 10-24 16-39 16-15 0-28-6-39-16l-33-33c-21-21-21-56 0-77l374-374-374-374c-10-10-16-24-16-39 0-14 6-28 16-38l33-33c10-10 24-16 38-16 15 0 29 6 39 16l446 445c10 11 16 25 16 39 0 15-6 29-16 39z" horiz-adv-x="587" />

<glyph glyph-name="sidebar" unicode="&#xe825;" d="M91 850c-50 0-91-41-91-91v-818c0-50 41-91 91-91h818c50 0 91 41 91 91v818c0 50-41 91-91 91z m0-45h818c25 0 46-21 46-46v-91h-909v91c0 25 20 46 45 46z m23-46a23 23 0 0 1-23-23 23 23 0 0 1 23-22 23 23 0 0 1 22 22 23 23 0 0 1-22 23z m91 0a23 23 0 0 1-23-23 23 23 0 0 1 23-22 23 23 0 0 1 22 22 23 23 0 0 1-22 23z m91 0a23 23 0 0 1-23-23 23 23 0 0 1 23-22 23 23 0 0 1 22 22 23 23 0 0 1-22 23z m-250-136h272v-728h0-227c-25 0-45 21-45 46z m318 0h591v-682c0-25-21-46-46-46h-545z m-250-137c-13 0-23-10-23-22 0-13 10-23 23-23h136c13 0 23 10 23 23 0 12-10 22-23 22z m0-136c-13 0-23-10-23-23 0-12 10-22 23-22h136c13 0 23 10 23 22 0 13-10 23-23 23z m0-136c-13 0-23-10-23-23 0-13 10-23 23-23h136c13 0 23 10 23 23 0 13-10 23-23 23z m0-137c-13 0-23-10-23-22 0-13 10-23 23-23h91c12 0 22 10 22 23 0 12-10 22-22 22z" horiz-adv-x="1000" />

<glyph glyph-name="shopping-bag" unicode="&#xe826;" d="M414 850c-106 0-191-86-191-191v-57h-126c-19 0-34-14-36-33l-61-680c-1-10 3-20 9-27 7-8 17-12 27-12h756 0c20 0 36 16 36 36 0 2 0 4-1 6l-61 677c-1 19-17 33-35 33h-126v57c0 105-86 191-191 191z m0-72c66 0 119-53 119-119v-57h-239v57c0 66 54 119 120 119z m-284-248h93v-64c0-20 16-36 35-36 20 0 36 16 36 36v64h239v-64c0-20 16-36 36-36 20 0 36 16 36 36v64h93l54-608h-677z" horiz-adv-x="828" />

<glyph glyph-name="menu-alter" unicode="&#xe827;" d="M83 850c-46 0-83-37-83-83 0-46 37-84 83-84 46 0 84 38 84 84 0 46-38 83-84 83z m417 0c-46 0-83-37-83-83 0-46 37-84 83-84 46 0 83 38 83 84 0 46-37 83-83 83z m416 0c-46 0-83-37-83-83 0-46 37-84 83-84 46 0 84 38 84 84 0 46-38 83-84 83z m-833-416c-46-1-83-38-83-84 0-46 37-83 83-83 46 0 84 37 84 83 0 46-38 84-84 84z m417 0c-46-1-83-38-83-84 0-46 37-83 83-83 46 0 83 37 83 83 0 46-37 84-83 84z m416 0c-46-1-83-38-83-84 0-46 37-83 83-83 46 0 84 37 84 83 0 46-38 84-84 84z m-833-417c-46 0-83-37-83-83 0-46 37-84 83-84 46 0 84 37 84 83 0 46-38 84-84 84z m417 0c-46 0-83-37-83-84 0-46 37-83 83-83 46 0 83 37 83 83 0 46-37 84-83 84z m416 0c-46 0-83-37-83-84 0-46 37-83 83-83 46 0 84 37 84 83 0 46-38 84-84 84z" horiz-adv-x="1000" />

<glyph glyph-name="eye" unicode="&#xe828;" d="M839 850c-321 0-611-175-826-460-17-23-17-56 0-79 215-286 505-461 826-461 320 0 611 175 826 460 17 24 17 56 0 80-215 285-506 460-826 460z m-3-147c203 2 368-169 355-376-11-175-154-318-329-329-213-14-389 162-375 375 11 176 153 318 329 329 7 1 13 1 20 1z m2-163c-4 0-8 0-11 0-95-6-172-83-178-178-7-114 88-209 202-201 95 5 171 82 178 177 7 111-82 203-191 202z" horiz-adv-x="1678" />

<glyph glyph-name="star-filled" unicode="&#xe829;" d="M297 498q69 152 114 252 6 15 24 15t23-15l114-252q164-18 274-30 15-3 21-18t-6-27l-204-187q33-161 55-270 3-15-10-25t-27-2l-240 136q-144-81-240-136-15-9-28 2t-11 25l56 270q-122 112-204 187-12 11-6 26t21 19z" horiz-adv-x="869" />

<glyph glyph-name="th" unicode="&#xe82a;" d="M883 311h-227c-64 0-117-53-117-117v-227c0-64 53-117 117-117h227c64 0 117 53 117 117v227c0 64-53 117-117 117z m39-344c0-21-18-39-39-39h-227c-21 0-39 18-39 39v227c0 21 18 39 39 39h227c21 0 39-18 39-39z m-577 344h-229c-64 0-116-52-116-116v-229c0-64 52-116 116-116h229c64 0 116 52 116 116v229c0 64-52 116-116 116z m38-345c0-21-17-38-38-38h-229c-21 0-38 17-38 38v229c0 21 17 38 38 38h229c21 0 38-17 38-38z m500 884h-227c-64 0-117-53-117-117v-227c0-64 53-117 117-117h227c64 0 117 53 117 117v227c0 64-53 117-117 117z m39-344c0-21-18-39-39-39h-227c-21 0-39 18-39 39v227c0 21 18 39 39 39h227c21 0 39-18 39-39z m-577 344h-229c-64 0-116-52-116-116v-229c0-64 52-116 116-116h229c64 0 116 52 116 116v229c0 64-52 116-116 116z m38-345c0-21-17-38-38-38h-229c-21 0-38 17-38 38v229c0 21 17 38 38 38h229c21 0 38-17 38-38z" horiz-adv-x="1000" />
</font>
</defs>
</svg>
